Problem with some video file

All your problems with Audio, Video and Images.

Problem with some video file

Postby swapnil_gadkari » Fri Jan 28, 2011 3:30 pm

hi,
i could not understand what exactly is the problem with the video file

Not able to play the below file whose details are as
General
Complete name : 248_Intro.mp4
Format : MPEG-4
Format profile : Base Media / Version 2
Codec ID : mp42
File size : 6.56 MiB
Duration : 1mn 3s
Overal bit rate : 869 Kbps
Encoded date : UTC 2011-01-26 17:19:35
Tagged date : UTC 2011-01-26 17:19:35

Video
Format : AVC
Format/Info : Advanced Video Codec
Format profile : Baseline@L3.0
Format settings, CABAC : No
Format settings, ReFrames : 1 frame
Codec ID : avc1
Duration : 1mn 3s
Bit rate mode : Variable
Bit rate : 705 Kbps
Width : 640 pixels
Height : 360 pixels
Display aspect ratio : 16/9
Frame rate mode : Constant
Frame rate : 29.970 fps
Colorimetry : 4:2:0
Scan type : Progressive
Bits/(Pixel*Frame) : 0.102
Stream size : 5.32 MiB
Encoded date : UTC 2011-01-26 17:19:35
Tagged date : UTC 2011-01-26 17:19:35

Audio
Format : AAC
Format/Info : Advanced Audio Codec
Format version : Version 4
Format profile : LC
Format settings, SBR : No
Codec ID : 40
Duration : 1mn 3s
Bit rate mode : Variable
Bit rate : 160 Kbps
Channel(s) : 2 channels
Channel positions : L R
Sampling rate : 44.1 KHz
Resolution : 16 bits
Stream size : 1.20 MiB

Able to play the file whose details are as below
General
Complete name : bmw.mp4
Format : MPEG-4
Format profile : Base Media / Version 2
Codec ID : mp42
File size : 4.37 MiB
Duration : 31s 68ms
Overal bit rate : 1181 Kbps
Encoded date : UTC 2008-04-28 15:00:31
Tagged date : UTC 2008-04-28 15:03:51

Video
Format : MPEG-4 Visual
Format profile : Simple Streaming Video@L4
Format settings, BVOP : Yes
Format settings, QPel : No
Format settings, GMC : No warppoints
Format settings, Matrix : Default
Codec ID : 20
Duration : 30s 125ms
Bit rate mode : Constant
Bit rate : 1087 Kbps
Nominal bit rate : 1200 Kbps
Width : 480 pixels
Height : 320 pixels
Display aspect ratio : 1.500
Frame rate mode : Constant
Frame rate : 30.008 fps
Resolution : 8 bits
Scan type : Progressive
Bits/(Pixel*Frame) : 0.236
Stream size : 3.90 MiB
Language : English
Encoded date : UTC 2008-04-28 15:00:31
Tagged date : UTC 2008-04-28 15:03:51

Audio
Format : AAC
Format/Info : Advanced Audio Codec
Format version : Version 4
Format profile : LC
Format settings, SBR : No
Codec ID : 40
Duration : 31s 68ms
Bit rate mode : Constant
Bit rate : 123 Kbps
Nominal bit rate : 128 Kbps
Channel(s) : 2 channels
Channel positions : L R
Sampling rate : 44.1 KHz
Resolution : 16 bits
Stream size : 467 KiB
Language : English

i exactly cannot guess what the problem is ? Both the files are in the .mp4 format. Please reply to me. Or else if there any 3rd party video library which can play any type of file?
swapnil_gadkari
Once Poster
Once Poster
 
Posts: 1
Joined: Fri Jan 28, 2011 3:20 pm

Top

Return to Multimedia Problems

Who is online

Users browsing this forum: No registered users and 19 guests